飞翔网◎科幻论坛

 找回密码
 加入飞翔

QQ登录

只需一步,快速开始

搜索
楼主: 蓝冰杰

[视频图片] BSG全集网盘下载帖(全1-4季更新完毕)

[复制链接]
发表于 2011-7-18 10:34:58 | 显示全部楼层
谢谢分享!720p给力~
回复 支持 反对

使用道具 举报

发表于 2011-7-20 00:09:03 | 显示全部楼层
顶楼主啊!!!!
回复 支持 反对

使用道具 举报

发表于 2011-7-20 08:21:17 | 显示全部楼层
規格好亂啊......(汗)
我之前下的都是720X400,約三百多M到四百多M跑
我想再下清礎一點需要那部?
回复 支持 反对

使用道具 举报

发表于 2011-7-22 22:04:38 | 显示全部楼层
为什么我下载的第一季的第一集不是720P的啊

F:\Videos\太空堡垒卡拉狄加\Battlestar Galactica S01_E01.avi
   General
      Complete name : F:\Videos\太空堡垒卡拉狄加\Battlestar Galactica S01_E01.avi
      Format : AVI
      Format/Info : Audio Video Interleave
      File size : 699 MiB
      Duration : 42mn 31s
      Overall bit rate : 2 298 Kbps
      Writing application : VirtualDubMod 1.5.10.1 (build 2439/release)
      Writing library : VirtualDubMod build 2439/release
   Video #0
      ID : 0
      Format : MPEG-4 Visual
      Format profile : AdvancedSimple@L5
      Format settings, BVOP : Yes
      Format settings, QPel : No
      Format settings, GMC : No warppoints
      Format settings, Matrix : Default (H.263)
      Muxing mode : Packed bitstream
      Codec ID : XVID
      Codec ID/Hint : XviD
      Duration : 42mn 31s
      Bit rate : 2 032 Kbps
      Width : 960 pixels
      Height : 528 pixels
      Display aspect ratio : 16:9
      Frame rate : 25.000 fps
      Resolution : 24 bits
      Colorimetry : 4:2:0
      Scan type : Progressive
      Bits/(Pixel*Frame) : 0.160
      Stream size : 618 MiB (88%)
      Writing library : XviD 1.0.3 (UTC 2004-12-20)
   Audio #1
      ID : 1
      Format : AC-3
      Format/Info : Audio Coding 3
      Codec ID : 2000
      Duration : 42mn 31s
      Bit rate mode : Constant
      Bit rate : 256 Kbps
      Channel(s) : 2 channels
      Channel positions : L R
      Sampling rate : 48.0 KHz
      Stream size : 77.9 MiB (11%)
      Alignment : Split accross interleaves
      Interleave, duration : 40 ms (1.00 video frame)
      Interleave, preload duration : 500 ms

点评

迷你剧是压制后的...  发表于 2011-7-23 11:00
回复 支持 反对

使用道具 举报

发表于 2011-7-24 15:10:54 | 显示全部楼层
太感谢楼主了
回复 支持 反对

使用道具 举报

发表于 2011-7-25 12:32:38 | 显示全部楼层
真是给力 回复给力 楼主辛苦 楼主好心好报 谢谢
回复 支持 反对

使用道具 举报

发表于 2011-7-26 23:27:28 | 显示全部楼层
谢谢楼主 太感谢了
回复 支持 反对

使用道具 举报

发表于 2011-7-27 16:01:43 | 显示全部楼层
感谢分享哈
回复 支持 反对

使用道具 举报

发表于 2011-8-4 15:29:52 | 显示全部楼层
太好了,给我们这些新人一个瞻仰神剧的机会。。。。。。。。。目前我看到S2
回复 支持 反对

使用道具 举报

发表于 2011-8-5 22:06:38 | 显示全部楼层
完善一下楼主的懒人福音贴,偶在射手上找到的s1e13的字幕贴到附件里面了,感谢楼主还有字幕翻译

顺便,楼主会发卡布里卡的资源不?刚刚看完卡拉狄加然后找卡布里卡的高清的源死活找不到。。。人人发布出来的到13之后就没了。。。

本帖子中包含更多资源

您需要 登录 才可以下载或查看,没有帐号?加入飞翔

x
回复 支持 反对

使用道具 举报

发表于 2011-8-6 01:44:23 | 显示全部楼层
楼主真了不起,感谢楼主
回复 支持 反对

使用道具 举报

发表于 2011-8-18 10:20:46 | 显示全部楼层
不是吧,怎么第三季、第四季不能链接了
回复 支持 反对

使用道具 举报

发表于 2011-8-23 11:09:47 | 显示全部楼层
感谢两位大大~可惜现在连115都不让下影视资源了 T-T
回复 支持 反对

使用道具 举报

发表于 2011-8-25 20:54:26 | 显示全部楼层
太感谢了,正在找这个。
回复 支持 反对

使用道具 举报

发表于 2011-8-25 21:06:38 | 显示全部楼层
请问下第一季第一集是不是不能下载了呢?
回复 支持 反对

使用道具 举报

发表于 2011-8-26 23:58:16 | 显示全部楼层
附件字幕下载后只有几十KB,还是网页。求解
回复 支持 反对

使用道具 举报

发表于 2011-9-1 20:07:11 | 显示全部楼层
rmvb的第4季第17集和前边某集重复了,请楼主看一下吧~谢谢
回复 支持 反对

使用道具 举报

发表于 2011-9-8 16:16:22 | 显示全部楼层
谢谢
回复 支持 反对

使用道具 举报

发表于 2011-9-18 11:41:43 | 显示全部楼层
一直找不到第四季BluRay.x264-SiNNERS这个版本的完美字幕,请版主看看有没有啊

点评

俺也米有...  发表于 2011-9-30 09:02
回复 支持 反对

使用道具 举报

发表于 2011-9-19 02:26:27 | 显示全部楼层
好贴呀 ,看得我内牛满面
回复 支持 反对

使用道具 举报

您需要登录后才可以回帖 登录 | 加入飞翔

本版积分规则

小黑屋|手机版|Archiver|飞翔·科幻网

GMT+8, 2018-6-22 21:04 , Processed in 0.088510 second(s), 15 queries .

Powered by Discuz! X3.4

© 2001-2017 Comsenz Inc.

快速回复 返回顶部 返回列表